Printable Version of Topic

Click here to view this topic in its original format

Metal Area - Extreme Music Portal _ New Releases _ Atomic Fate - This Is Only The Beginning (2020)

Posted by: Samaritianin Jul 21 2021, 16:29:22

https://metalarea.org/images/audiocovers/2021_Jul/acov_tid353637.jpg

*Artist: Atomic Fate
*Album: This Is Only The Beginning
*Year: 2020
*Genre: Thrash Metal
*Country: United States
*Format: mp3@CBR320kbps
*Size: 74MB

Tracklist:
1. This Is Only the Beginning 02:12
2. Vertigo 04:12
3. When Anarchy Reigns 04:14
4. If It Isn't One Thing... It's the Other 05:25
5. I Don't Want to Live My Life Again 05:58
6. DopeHouse 05:15
7. Reborn 05:06
******************************
Total playing time: 32:22

https://www.facebook.com/atomicfate/

Technical info

Input File: 06 - DopeHouse.mp3
Channels : 2
Sample Rate : 44100
Precision : 16-bit
Duration : 00:05:15.00 = 13891500 samples = 23625 CDDA sectors
File Size : 12.7M
Bit Rate : 323k
Sample Encoding: MPEG audio (layer I, II or III)
Comments :
Title=DopeHouse
Artist=ATOMIC FATE
Album=This Is Only the Beginning
Tracknumber=6
Year=2020-10-21
Genre=Metal
Discnumber=1



[ Hidden Text ]

Powered by Invision Power Board
© Invision Power Services