Printable Version of Topic

Click here to view this topic in its original format

Metal Area - Extreme Music Portal _ New Releases _ Necrosound - Addiction For Lust And Perversion (2020)

Posted by: smysl Sep 12 2021, 19:29:07

https://metalarea.org/images/audiocovers/2021_Sep/acov_tid355435.jpg

*Artist: Necrosound
*Album: Addiction For Lust And Perversion
*Year: 2020
*Genre: Black Metal
*Country: Brazil
*Format: mp3@VBR256kbps
*Size: 65MB

Tracklist:
1. Pleasure and Insanity 05:31
2. Sick Assassins 04:12
3. Destroy the Worms 05:43
4. Discovering the pleasure of the Flesh 06:57
5. Dilacerating the Gospel (Impurity cover) 03:21
6. Outbreak of Evil (live) 03:17
7. Vicious, Pain and Anguish (live) 02:27
8. The Single Certain (live) 01:56
******************************
Total playing time: 33:24

Technical info

Input File: 03 Destroy the Worms.mp3
Channels : 2
Sample Rate : 44100
Precision : 16-bit
Duration : 00:05:43.04 = 15128064 samples = 25728 CDDA sectors
File Size : 10.6M
Bit Rate : 248k
Sample Encoding: MPEG audio (layer I, II or III)
Comments :
Title=Destroy the Worms
Artist=Necrosound
Album=Addiction for Lust and Perversion
Tracknumber=3/8
Year=2020
Genre=Black Metal



[ Hidden Text ]

Posted by: alex-82 Sep 23 2021, 06:27:55

https://www.youtube.com/watch?v=f9ftdjoqB8s

Powered by Invision Power Board
© Invision Power Services