Printable Version of Topic

Click here to view this topic in its original format

Metal Area - Extreme Music Portal _ New Releases _ Lucifer Impaled - Blood​.​ War​.​ Supremacy [ep] (2020)

Posted by: GorAtheist Sep 12 2021, 19:29:58

https://metalarea.org/images/audiocovers/2021_Sep/acov_tid355436.jpg

*Artist: Lucifer Impaled
*Album: Blood​.​ War​.​ Supremacy [ep]
*Year: 2020
*Genre: Unblack Metal
*Country: Canada
*Format: mp3@CBR320kbps
*Size: 33MB

Tracklist:
1. Armageddon 00:59
2. Legions of the Cross 04:14
3. Winds of Lust 03:07
4. Nuclear Desecration of Satanic Might 02:33
5. Blood. War. Supremacy. 03:53
******************************
Total playing time: 14:46

https://luciferimpaled.bandcamp.com/album/blood-war-supremacy

Extended info
https://www.metal-archives.com/albums/Lucifer_Impaled/Blood._War._Supremacy/786532


Technical info

Input File: 05 Blood.War.Supremacy.mp3
Channels : 2
Sample Rate : 44100
Precision : 16-bit
Duration : 00:03:56.29 = 10420389 samples = 17721.8 CDDA sectors
File Size : 9.56M
Bit Rate : 324k
Sample Encoding: MPEG audio (layer I, II or III)
Comments :
Title=Blood.War.Supremacy
Artist=Lucifer Impaled
Album=Blood.War.Supremacy
Tracknumber=5
Year=2020



[ Hidden Text ]

Posted by: Unknown Sep 13 2021, 05:08:16

Lyrical themes: Christianity 22.gif

Posted by: Djarovich Sep 13 2021, 09:39:02

"Christian Black Metal" уже звучит как профанация и посмешище (овцы за волков), а "Козлятина"/war metal так вообще без комментариев))))
Парнишка наслушался Revenge и думает что сможет совместить свои раболепные верования с музыкой, чьей сутью и духом является открытое Восстание и попрание многих ограничений, сложившихся в обществе на протяжении веков.
Выглядит комично, как попугайчик ара, пытающийся косить под ястреба.

Posted by: rickzammuto Sep 13 2021, 16:21:50

Should be banned or called unblack! t3741.gif poster_ban.gif poster_ban.gif offtopic2.gif 23.gif 23.gif

Posted by: Njelfur Sep 13 2021, 20:56:41

В реалиах насквозь атеистического прогрессивного западного общества быть христианином куда больше "ребеллион", чем быть маминым ссатанистом.

Posted by: rominow Sep 13 2021, 21:30:37

я надеюсь он взял благословение?

Posted by: nsk2008 Sep 15 2021, 00:38:08

Перевернутые кресты - это, видать, какое-то новое веяние в анблэке.

Posted by: Storky Oct 13 2021, 11:06:53

ЦИТАТА(Njelfur @ Sep 13 2021, 22:56:41) *
В реалиах насквозь атеистического прогрессивного западного общества быть христианином куда больше "ребеллион", чем быть маминым ссатанистом.

Хаха ахахахахаха

Posted by: rickzammuto Oct 13 2021, 22:19:45

Western society is 90% Christian; no "rebellion" here! Come onto Metal Area during primetime here (4pm-midnight Eastern Time), to see almost nobody is logged in, except for a few Metal Area "Kingpins", whereas 500 or more are almost always logged in during Eastern society primetime (4pm-midnight local time).

QUOTE(Njelfur @ Sep 13 2021, 15:56:41) *
В реалиах насквозь атеистического прогрессивного западного общества быть христианином куда больше "ребеллион", чем быть маминым ссатанистом.

Powered by Invision Power Board
© Invision Power Services