Printable Version of Topic

Click here to view this topic in its original format

Metal Area - Extreme Music Portal _ New Releases _ Ecpatia - 3:15 Am (2021)

Posted by: NachtWulf Sep 13 2021, 14:29:38

http://metalarea.org/images/audiocovers/2021_Sep/acov_tid355450.jpg

*Artist: Ecpatia
*Album: 3:15 Am
*Year: 2021
*Genre: Depressive Black Metal
*Country: Costa Rica
*Format: mp3@CBR320kbps
*Size: 67MB

Tracklist:
01. Lost
02. By My Name
03. Encierro
04. Last Sound of Bells
06. 3:15 AM
07. Outro: Bye
******************************
Total playing time: 31:18

Technical info

Input File: 01. Lost.mp3
Channels : 2
Sample Rate : 44100
Precision : 16-bit
Duration : 00:00:00.34 = 15038 samples = 25.5748 CDDA sectors
File Size : 13.7M
Bit Rate : 322M
Sample Encoding: MPEG audio (layer I, II or III)
Comments :
Title=Lost
Artist=Ecpatia
Album=3:15Am
Tracknumber=1
Year=2021-01-03
Genre=Metal
Discnumber=1



[ Hidden Text ]

Posted by: isvili Sep 14 2021, 10:55:48


Powered by Invision Power Board
© Invision Power Services