Printable Version of Topic

Click here to view this topic in its original format

Metal Area - Extreme Music Portal _ New Releases _ Pralaya - Katabasis - Descida Ao Abismo Interior Retificando A Amorfa Chama Da Dissolução [ep] (2021)

Posted by: smysl Sep 13 2021, 17:35:50

https://metalarea.org/images/audiocovers/2021_Sep/acov_tid355454.jpg

*Artist: Pralaya
*Album: Katabasis - Descida Ao Abismo Interior Retificando A Amorfa Chama Da Dissolução [ep]
*Year: 2021
*Genre: Black Metal
*Country: Brazil
*Format: mp3@VBR277kbps
*Size: 61MB

Tracklist:
1.Summa Lotus Rubrae 10:32
2.Apostasia da Carne 08:51
3.Exaltação da Negra Kundalini 09:27
******************************
Total playing time: 28:50

https://blackheartsrecords.bandcamp.com/album/katabasis-descida-ao-abismo-interior-retificando-a-amorfa-chama-da-dissolu-o
https://deathdefierproductions.bandcamp.com/album/katabasis-descida-ao-abismo-interior-retificando-a-amorfa-chama-da-dissolu-o
https://www.facebook.com/PralayaTemple

Extended info
CD, Black Hearts Records (BLACK051)


Technical info

Input File: 01 Summa Lotus Rubrae.mp3
Channels : 2
Sample Rate : 44100
Precision : 16-bit
Duration : 00:10:32.03 = 27872611 samples = 47402.4 CDDA sectors
File Size : 22.3M
Bit Rate : 282k
Sample Encoding: MPEG audio (layer I, II or III)
Comments :
Title=Summa Lotus Rubrae
Artist=Pralaya
Album=Katabasis
Tracknumber=1/3
Year=2021
Genre=Black Metal



[ Hidden Text ]

Powered by Invision Power Board
© Invision Power Services