Printable Version of Topic

Click here to view this topic in its original format

Metal Area - Extreme Music Portal _ New Releases _ Svlfvr & Cristo Em Chamas - Tétrica Comunhão Das Abominações [split] (2020)

Posted by: smysl Sep 13 2021, 18:10:01

https://metalarea.org/images/audiocovers/2021_Sep/acov_tid355456.jpg

*Artist: Svlfvr & Cristo Em Chamas
*Album: Tétrica Comunhão Das Abominações [split]
*Year: 2020
*Genre: Black/Death Metal | Black Metal
*Country: Brazil | Brazil
*Format: mp3@VBR224kbps
*Size: 68MB

Tracklist:
Svlfvr:
1.Abyssal Calling 03:07
2.Satanist Pride 03:59
3.Bestial Lust 02:25
4.O.O.O. 02:20
5.Sulfuric Motörmachine 02:47
6.Lilitu 02:45

Cristo em Chamas:
7.Sangrento Massacre Celestial 05:44
8.I.A.M. (Impiedoso Assassino Misantropo) 04:18
9.Escárnio Flamejante ao Rei dos Fracos 05:10
10.Reverenciando a Insígne Era Vulgar 03:49
11.Cravando com a Cruz um Poço de Sangue no Anus do Nazareno Bastardo 02:27
******************************
Total playing time: 38:51

https://blackheartsrecords.bandcamp.com/album/t-trica-comunh-o-das-abomina-es

Extended info
CD, Black Hearts Records (BLACK034)


Technical info

Input File: 02 Svlfvr - Satanist Pride.mp3
Channels : 2
Sample Rate : 44100
Precision : 16-bit
Duration : 00:03:59.18 = 10547706 samples = 17938.3 CDDA sectors
File Size : 6.61M
Bit Rate : 221k
Sample Encoding: MPEG audio (layer I, II or III)
Comments :
Title=Satanist Pride
Artist=Svlfvr
Album=Tétrica Comunhão das Abominações
Tracknumber=2/11
Year=2020
Genre=Black Metal



[ Hidden Text ]

Powered by Invision Power Board
© Invision Power Services