Printable Version of Topic

Click here to view this topic in its original format

Metal Area - Extreme Music Portal _ New Releases _ Proagression - Bokasze [ep] (2021)

Posted by: Samaritianin Sep 13 2021, 21:28:37

https://metalarea.org/images/audiocovers/2021_Sep/acov_tid355461.jpg

*Artist: Proagression
*Album: Bokasze [ep]
*Year: 2021
*Genre: Thrash Metal
*Country: Argentina
*Format: mp3@CBR320kbps
*Size: 54MB

Tracklist:
1. No hay suelo donde hacer Pie 04:28
2. Naufragar 04:22
3. Sísifo (La sal) 04:26
4. Mi reflejo / Tus ojos 05:02
5. Hasta despertar 04:28
******************************
Total playing time: 22:46

https://proagression.bandcamp.com/album/bokasze
https://www.facebook.com/ProAgressioN

Extended info
Rodrigo Da Cruz Bass
German Lopez Guitars
Hernán Pérez Vocals
David Carpinella Guitars
Federico de Dios Drums


Technical info

Input File: PROAGRESSION - Bokasze - 04 Mi reflejo - Tus ojos.mp3
Channels : 2
Sample Rate : 44100
Precision : 16-bit
Duration : 00:05:02.44 = 13337428 samples = 22682.7 CDDA sectors
File Size : 12.3M
Bit Rate : 326k
Sample Encoding: MPEG audio (layer I, II or III)
Comments :
Title=Mi reflejo / Tus ojos
Artist=PROAGRESSION
Album=Bokasze
Tracknumber=4
Year=2021



[ Hidden Text ]

Powered by Invision Power Board
© Invision Power Services