Printable Version of Topic

Click here to view this topic in its original format

Metal Area - Extreme Music Portal _ New Releases _ Stheno - Wardance (2021)

Posted by: Panacea Sep 13 2021, 21:45:47

http://metalarea.org/images/audiocovers/2021_Sep/acov_tid355462.jpg

*Artist: Stheno
*Album: Wardance
*Year: 2021
*Genre: Black Metal/Grindcore
*Country: Greece
*Format: mp3@CBR320kbps
*Size: 60MB

Tracklist:
1. Bestial Batallion 02:25
2. RPG 01:24
3. Deadly Camouflage 03:05
4. Fire! 01:26
5. Snake Eater 03:11
6. Zulu Time 02:36
7. Snafu (This Time... We Die!!) 02:09
8. Dishonored Bodybag 01:23
9. Military Discharge 02:00
10. Bite The Bullet 02:33
11. Bellum Internecinum 02:05
******************************
Total playing time: 24:17

https://stheno.bandcamp.com/album/wardance
https://7degreesrecords.bandcamp.com/album/7dr044-stheno-wardance-lp

Technical info

Input File: 01 - Bestial Batallion.mp3
Channels : 2
Sample Rate : 44100
Precision : 16-bit
Duration : 00:02:25.17 = 6401777 samples = 10887.4 CDDA sectors
File Size : 6.58M
Bit Rate : 363k
Sample Encoding: MPEG audio (layer I, II or III)
Comments :
Title=Bestial Batallion
Artist=Stheno
Album=Wardance
Tracknumber=1
Year=2021
Genre=Black Metal/Grindcore



[ Hidden Text ]

Posted by: дивин Sep 14 2021, 07:49:25

Почему грайндкор... это получается какой-нибудь Infernal War или Marduk стали с тэгом грайдкор\блэк?

Posted by: 6666666 Sep 14 2021, 08:47:21

Реально как Натрахи?

Posted by: AnthonyHipHopkins Sep 14 2021, 14:07:39

Какие там Натрахи... Просто очень быстрая долба, в которой даже выяснять не хочется, грайнд ли это, или дэт, или блэк, или русский шансон.

Posted by: Panacea Sep 14 2021, 15:09:13


Posted by: Victim of fate Oct 6 2021, 05:28:39

блэк+хардкор

Posted by: guidanner Oct 19 2021, 02:41:25

Insane riffing machine!

Powered by Invision Power Board
© Invision Power Services