Printable Version of Topic

Click here to view this topic in its original format

Metal Area - Extreme Music Portal _ New Releases _ Thundermaker - The Road (2021)

Posted by: Samaritianin Sep 14 2021, 03:25:26

https://metalarea.org/images/audiocovers/2021_Sep/acov_tid355465.jpg

*Artist: Thundermaker
*Album: The Road
*Year: 2021
*Genre: Heavy Metal
*Country: Sweden
*Format: mp3@CBR320kbps
*Size: 112MB

Tracklist:
1. The Road (feat. Ronny Munroe)
2. Fire Burns Forever (feat. Tim "Ripper" Owens)
3. Broken Promises (feat. Ronny Munroe)
4. A Twin Flame Journey (feat. Ronny Munroe)
5. Fake (feat. L-G Petrov)
6. Symbiosis (feat. Rille Larsson)
7. The Runner & The Chaser (feat. Tim "Ripper" Owens)
8. Where Sorrow Dwells (feat. Rille Larsson)
9. 1111 (feat. Ronny Munroe)
10. Mi-Ya (Instrumental)
******************************
Total playing time: 48:48

https://www.facebook.com/thundermakerofficial

Extended info
Marty Gummesson Bass, Guitars, Keyboards (2013-present)
See also: Marty DeLay, Payback
Eddie Juneskär Drums (2013-2014, 2018-present)
See also: ex-Nymf


Technical info

Input File: 08 - Where Sorrow Dwells.mp3
Channels : 2
Sample Rate : 44100
Precision : 16-bit
Duration : 00:07:04.07 = 18701575 samples = 31805.4 CDDA sectors
File Size : 17.0M
Bit Rate : 320k
Sample Encoding: MPEG audio (layer I, II or III)
Comments :
Title=Where Sorrow Dwells
Artist=刀椀氀氀攀 䰀愀爀猀猀漀渀
Album=The Road
Tracknumber=8
Year=2021



[ Hidden Text ]

Posted by: Mick Dundee Sep 14 2021, 17:26:04

Откуда они столько гостей именитых надёргали ? Да ещё и Петров,упокойничек.

Powered by Invision Power Board
© Invision Power Services