Printable Version of Topic

Click here to view this topic in its original format

Metal Area - Extreme Music Portal _ New Releases _ Billakeez - Severed Extremities [ep] (2021)

Posted by: Necrokilldozer Oct 12 2021, 17:32:21

http://metalarea.org/images/audiocovers/2021_Oct/acov_tid356635.jpg

*Artist: Billakeez
*Album: Severed Extremities [ep]
*Year: 2021
*Genre: Death Metal
*Country: United Kingdom
*Format: mp3@CBR320kbps
*Size: 51MB

Tracklist:
1. Too Fast For Bastards 03:54
2. Body of Vengeance 04:46
3. Jixaw 03:22
4. The Plumber 03:15
5. The Flood 03:48
6. Fuck Armageddon This Is Hell 02:36
******************************
Total playing time: 21:41

https://billakeez.bandcamp.com/album/severed-extremities

Technical info

Input File: 06. Fuck Armageddon This Is Hell.mp3
Channels : 2
Sample Rate : 44100
Precision : 16-bit
Duration : 00:02:36.28 = 6891772 samples = 11720.7 CDDA sectors
File Size : 6.25M
Bit Rate : 320k
Sample Encoding: MPEG audio (layer I, II or III)
Comments :
Title=Fuck Armageddon This Is Hell
Artist=Billakeez
Album=Severed Extremities (EP)
Tracknumber=6
Year=2021
Genre=22



[ Hidden Text ]

Powered by Invision Power Board
© Invision Power Services