Printable Version of Topic

Click here to view this topic in its original format

Metal Area - Extreme Music Portal _ New Releases _ Sangre Negra - El Vuelo Del Cóndor Negro (2021)

Posted by: Funeral Frost Oct 12 2021, 20:27:09

http://metalarea.org/images/audiocovers/2021_Oct/acov_tid356644.jpg

*Artist: Sangre Negra
*Album: El Vuelo Del Cóndor Negro
*Year: 2021
*Genre: Black Metal
*Country: Chile
*Format: mp3@CBR320kbps
*Size: 78MB

Tracklist:
1. Intro 00:35
2. El vuelo del cóndor negro 03:05
3. Oscuras alturas de negra lucha 03:06
4. Cayendo al negro abismo 03:03
5. Conquistador conquistado 03:57
6. La muerte es lo único eterno 06:39
7. Katrala 02:56
8. El manifiesto (VJ cover) 05:00
9. Negra locura (Ritual Oscuro cover) 05:30
******************************
Total playing time: 33:51

https://www.youtube.com/watch?v=EQQH0uAbBp8

Technical info

Input File: 04 - Cayendo Al Negro Abismo.mp3
Channels : 2
Sample Rate : 44100
Precision : 16-bit
Duration : 00:03:03.03 = 8071491 samples = 13727 CDDA sectors
File Size : 7.32M
Bit Rate : 320k
Sample Encoding: MPEG audio (layer I, II or III)
Comments :
Title=Cayendo Al Negro Abismo
Artist=Sangre Negra
Album=El Vuelo Del Cóndor Negro
Tracknumber=04
Year=2021



[ Hidden Text ]

Posted by: дивин Oct 13 2021, 09:09:27

Включил превью на ютубе, запись тихая какая-то, сделал погромче. А тут бац и неожиданно аццке вокал пошёл. Я аж кофе поперхнулся. За злость и ненависть - плюс, но в целом это слушать нельзя.

Powered by Invision Power Board
© Invision Power Services