Printable Version of Topic

Click here to view this topic in its original format

Metal Area - Extreme Music Portal _ New Releases _ Unrelenting Torment - Cursed By The Witch (2021)

Posted by: Funeral Frost Oct 12 2021, 20:30:39

http://metalarea.org/images/audiocovers/2021_Oct/acov_tid356647.jpg

*Artist: Unrelenting Torment
*Album: Cursed By The Witch
*Year: 2021
*Genre: Black Metal
*Country: United States
*Format: mp3@CBR320kbps
*Size: 113MB

Tracklist:
1. Benevolence Turned Malevolent 05:50
2. Enchanted by the Mistress of Spring 05:53
3. Summer of the Witches Curse 07:16
4. Death Ashes in the Winds of Fall 08:17
5. Her Blackened Broken Heart 07:11
6. The Wraith of Winter Night 06:12
7. Cursed by the Witch 08:52
******************************
Total playing time: 49:31

https://unrelentingtorment.bandcamp.com/album/cursed-by-the-witch

Technical info

Input File: 01 - Benevolence Turned Malevolent.mp3
Channels : 2
Sample Rate : 44100
Precision : 16-bit
Duration : 00:05:50.12 = 15440072 samples = 26258.6 CDDA sectors
File Size : 14.0M
Bit Rate : 320k
Sample Encoding: MPEG audio (layer I, II or III)
Comments :
Title=Benevolence Turned Malevolent
Artist=Unrelenting Torment
Album=Cursed by the Witch
Tracknumber=01
Year=2021



[ Hidden Text ]

Powered by Invision Power Board
© Invision Power Services