Printable Version of Topic

Click here to view this topic in its original format

Metal Area - Extreme Music Portal _ New Releases _ Alcahest - Alcahest (2021)

Posted by: Funeral Frost Oct 12 2021, 20:35:32

http://metalarea.org/images/audiocovers/2021_Oct/acov_tid356651.jpg

*Artist: Alcahest
*Album: Alcahest
*Year: 2021
*Genre: Black Metal
*Country: France
*Format: mp3@CBR320kbps
*Size: 46MB

Tracklist:
1. Délivrance 06:06
2. Charogne 04:12
3. Le vide 04:52
4. Memento Mori 04:38
******************************
Total playing time: 19:48

https://alcahestband.bandcamp.com/album/alcahest

Technical info

Input File: 02 - Charogne.mp3
Channels : 2
Sample Rate : 44100
Precision : 16-bit
Duration : 00:04:12.05 = 11115229 samples = 18903.5 CDDA sectors
File Size : 10.2M
Bit Rate : 323k
Sample Encoding: MPEG audio (layer I, II or III)
Comments :
Title=Charogne
Artist=Alcahest
Album=Alcahest
Tracknumber=02
Year=2021



[ Hidden Text ]

Posted by: vosmidesijatye Oct 13 2021, 14:01:41

Алкотест true_black.gif

Posted by: KKK1488 Oct 13 2021, 14:15:53

ЦИТАТА(vosmidesijatye @ Oct 13 2021, 16:01:41) *
Алкотест true_black.gif


Нет! Товарисч!!! -- АлкоЧесть!!!
офицерская и даже гражданская...

Posted by: witchfinder Oct 13 2021, 14:47:39

...Yo yo yo, you best have my money or else Imma bust a cap in your FLAC...

[ Hidden Text ]

Posted by: squall8fr Oct 13 2021, 16:47:23

QUOTE
First Alcahest EP in Digisleeve released by Drakkar Productions
Artwork : Manon-Lou The Witch
Logo : Christophe Szpajdel

Posted by: Storky Nov 17 2021, 17:26:18

True Black true_black.gif

Powered by Invision Power Board
© Invision Power Services