Printable Version of Topic

Click here to view this topic in its original format

Metal Area - Extreme Music Portal _ New Releases _ Weathered Crest - Blossoming Of The Paths (2021)

Posted by: Velmi Oct 13 2021, 16:30:43

http://metalarea.org/images/audiocovers/2021_Oct/acov_tid356670.jpg

*Artist: Weathered Crest
*Album: Blossoming Of The Paths
*Year: 2021
*Genre: Black Metal
*Country: Austria
*Format: mp3@CBR320kbps
*Size: 81MB

Tracklist:
1. Intro (Burning Gates) 01:37
2. Insects For The Eyes Of Icons 02:59
3. Solitary Bliss 03:50
4. Armor Of Ash And Dust 03:10
5. Reverie In Lushest Fields 03:56
6. Interlude 02:37
7. Punishment & Songs Of Praise 03:55
8. Eternal Shine In Golden Halls 03:49
9. Cloaking The Monuments 03:02
10. Outro (The Conclusion) 04:13
******************************
Total playing time: 33:08

https://weatheredcrest.bandcamp.com/album/blossoming-of-the-paths?from=hp

Technical info

Input File: 02. Insects For the Eyes of Icons.mp3
Channels : 2
Sample Rate : 44100
Precision : 16-bit
Duration : 00:02:57.90 = 7845478 samples = 13342.6 CDDA sectors
File Size : 7.34M
Bit Rate : 330k
Sample Encoding: MPEG audio (layer I, II or III)
Comments :
Title=Insects For the Eyes of Icons
Artist=Weathered Crest
Album=Blossoming Of The Paths
Tracknumber=02/10
Year=2021
Genre=Black Metal



[ Hidden Text ]

Powered by Invision Power Board
© Invision Power Services