Printable Version of Topic

Click here to view this topic in its original format

Metal Area - Extreme Music Portal _ New Releases _ Daemoni - Necrocult [ep] (2021)

Posted by: smysl Oct 13 2021, 22:29:49

https://metalarea.org/images/audiocovers/2021_Oct/acov_tid356687.jpg

*Artist: Daemoni
*Album: Necrocult [ep]
*Year: 2021
*Genre: Black Metal
*Country: Colombia
*Format: mp3@VBR260kbps
*Size: 38MB

Tracklist:
1.Spitting Inferno 03:51
2.The Whip Of The Goat 04:24
3.Fest of fire 04:04
4.Necrocult 03:41
5.Blessed With the Wrath of Evil (The Abyss Cover) 03:53
******************************
Total playing time: 19:53

https://daemoni.bandcamp.com/album/necrocult-ep-2
https://www.facebook.com/DaemoniBand/?ref=page_internal

Extended info
CD, Raise the Dead Productions


Technical info

Input File: 02 The Whip of the Goat.mp3
Channels : 2
Sample Rate : 44100
Precision : 16-bit
Duration : 00:04:26.53 = 11753841 samples = 19989.5 CDDA sectors
File Size : 8.64M
Bit Rate : 259k
Sample Encoding: MPEG audio (layer I, II or III)
Comments :
Title=The Whip of the Goat
Artist=Daemoni
Album=Necrocult
Tracknumber=2/5
Year=2021-00-00
Genre=Black Metal



[ Hidden Text ]

Powered by Invision Power Board
© Invision Power Services