Printable Version of Topic

Click here to view this topic in its original format

Metal Area - Extreme Music Portal _ New Releases _ Hierarchical Punishment - Psychotic Disorders (2021)

Posted by: kefka Nov 24 2021, 13:57:02

https://metalarea.org/images/audiocovers/2021_Nov/acov_tid358757.jpg

*Artist: Hierarchical Punishment
*Album: Psychotic Disorders
*Year: 2021
*Genre: Death Metal
*Country: Brazil
*Format: mp3@CBR320kbps
*Size: 93MB

Tracklist:
1.Don't Look Back 04:00
2.Escape The Fate 03:23
3.Angels And Demons 03:06
4.Emotional Evisceration 02:13
5.The Darkness 03:07
6.Human Nature 02:05
7.The Choice 02:50
8.Madness 04:15
9.Moment Of Truth 03:22
10.Road 01:12
11.Memories 02:24
12.Turning Point 07:25
******************************
Total playing time: 39:22

https://hierarchicalpunishment.bandcamp.com/album/psychotic-disorders

Technical info

Input File: 04. Emotional Evisceration.mp3
Channels : 2
Sample Rate : 44100
Precision : 16-bit
Duration : 00:02:13.60 = 5891760 samples = 10020 CDDA sectors
File Size : 5.60M
Bit Rate : 335k
Sample Encoding: MPEG audio (layer I, II or III)
Comments :
Title=Emotional Evisceration
Artist=Hierarchical Punishment
Album=Psychotic Disorders
Tracknumber=04
Year=2021
Genre=Death Metal



[ Hidden Text ]

Posted by: kefka Nov 25 2021, 06:36:52

FLAC 310MB
[ Hidden Text ]

Posted by: Storky Dec 7 2021, 13:47:53

Не плохой жирный тру дэт, не возможно оторваться

Powered by Invision Power Board
© Invision Power Services