Printable Version of Topic

Click here to view this topic in its original format

Metal Area - Extreme Music Portal _ New Releases _ Grand Finale - Everything Has An End [ep] (2021)

Posted by: necroscum Nov 24 2021, 16:05:38

https://metalarea.org/images/audiocovers/2021_Nov/acov_tid358761.jpg

*Artist: Grand Finale
*Album: Everything Has An End [ep]
*Year: 2021
*Genre: Symphonic Power Metal
*Country: Japan
*Format: mp3@CBR320kbps
*Size: 56MB

Tracklist:
01. Everything Has An End 5:26
02. Never Be Alone 3:56
03. Don't Give Up 4:25
04. The Master Of My Fate (New Recording) 4:39
05. Kodokunohana (New Recording) 5:50
******************************
Total playing time: 24:16

https://www.facebook.com/GRANAFINALE.OFFICIAL/
https://www.youtube.com/watch?v=RRpdoS7hNWQ

Technical info

Input File: 02 - Never Be Alone.mp3
Channels : 2
Sample Rate : 44100
Precision : 16-bit
Duration : 00:03:56.42 = 10426298 samples = 17731.8 CDDA sectors
File Size : 9.52M
Bit Rate : 322k
Sample Encoding: MPEG audio (layer I, II or III)
Comments :
Title=Never Be Alone
Artist=Grand Finale
Album=Everything Has An End
Tracknumber=2
Year=2021
Discnumber=1/1



[ Hidden Text ]

Powered by Invision Power Board
© Invision Power Services