Printable Version of Topic

Click here to view this topic in its original format

Metal Area - Extreme Music Portal _ New Releases _ Grand Finale - Quantum Moment (2020)

Posted by: necroscum Nov 24 2021, 16:16:14

https://metalarea.org/images/audiocovers/2021_Nov/acov_tid358762.jpg

*Artist: Grand Finale
*Album: Quantum Moment
*Year: 2020
*Genre: Symphonic Power Metal
*Country: Japan
*Format: mp3@CBR320kbps
*Size: 113MB

Tracklist:
01. Human 05:24
02. World of Glory 05:03
03. Fly to the Shangri-La 05:10
04. Silent God 07:12
05. 君は鳥 05:02
06. Fly Away 03:56
07. Moment 04:34
08. Again 04:55
09. Unchanging Days 04:20
10. The Last One 04:57
11. This Is Amazing 05:30
******************************
Total playing time: 56:03

https://www.facebook.com/GRANAFINALE.OFFICIAL/
https://www.youtube.com/watch?v=bJzF_jhZPbk

Technical info

Input File: 11 This Is Amazing.mp3
Channels : 2
Sample Rate : 44100
Precision : 16-bit
Duration : 00:05:30.00 = 14553000 samples = 24750 CDDA sectors
File Size : 13.2M
Bit Rate : 320k
Sample Encoding: MPEG audio (layer I, II or III)
Comments :
Title=This Is Amazing
Artist=Grand Finale
Album=Quantum Moment
Tracknumber=11
Year=2020
Genre=Metal & Hard Rock



[ Hidden Text ]

Powered by Invision Power Board
© Invision Power Services