Printable Version of Topic

Click here to view this topic in its original format

Metal Area - Extreme Music Portal _ New Releases _ Sereignos - Total Havoc (2014)

Posted by: necroscum Nov 24 2021, 17:03:52

https://metalarea.org/images/audiocovers/2021_Nov/acov_tid358764.jpg

*Artist: Sereignos
*Album: Total Havoc
*Year: 2014
*Genre: Black/Death Metal
*Country: Indonesia
*Format: mp3@CBR320kbps
*Size: 96MB

Tracklist:
01. Budhal (Intro) 01:43
02. Roh Api 04:30
03. Exterminate The Human Race 02:51
04. UN-R 04:31
05. Total Havoc 04:00
06. Daulat Belizzuriah 04:02
07. Hymn Sujudmaut 03:24
08. Eksistensi Kebiadaban 02:32
09. Evilgas Terror 02:20
10. Freedom (Autro) 01:24
11. Atomik Predator Palangsabit (Bonus Track) 02:46
12. Devilust Abomination (Bonus Track) 04:15
13. Seven Sacrifice (Bonus Track) 03:02
******************************
Total playing time: 41:20

https://myspace.com/sereignos
https://www.facebook.com/sereignos.bdm/
https://www.reverbnation.com/sereignos
https://satanath.bandcamp.com/album/sat094-sereignos-total-havoc-2014
https://www.youtube.com/watch?v=gNORSBenSOg

Extended info
Exclusive for Metalarea.org


Technical info

Input File: 02. Roh Api.mp3
Channels : 2
Sample Rate : 44100
Precision : 16-bit
Duration : 00:04:30.98 = 11950350 samples = 20323.7 CDDA sectors
File Size : 11.0M
Bit Rate : 324k
Sample Encoding: MPEG audio (layer I, II or III)
Comments :
Title=Roh Api
Artist=Sereignos
Album=SAT094: Sereignos - Total Havoc (2014)
Tracknumber=2
Year=2014



[ Hidden Text ]

Powered by Invision Power Board
© Invision Power Services