Printable Version of Topic

Click here to view this topic in its original format

Metal Area - Extreme Music Portal _ Archive _ Graves - Ascensão Do Impiedoso [demo] (2019)

Posted by: Panacea Nov 24 2021, 21:02:43

http://metalarea.org/images/audiocovers/2021_Nov/acov_tid358765.jpg

*Artist: Graves
*Album: Ascensão Do Impiedoso [demo]
*Year: 2019
*Genre: Black Metal
*Country: Portugal
*Format: mp3@CBR320kbps
*Size: 56MB

Tracklist:
1. Ventos Negros Da Morte 04:26
2. Destruição Da Sagrada Mentira 04:11
3. Ascensão Do Impiedoso 03:31
4. Mórbido Amanhecer 04:26
5. Profanação Eterna 05:10
6. Alquimia Do Sofrimento 02:56
7. Pela Luz Negra 07:48
******************************
Total playing time: 32:28

https://war-arts-productions.bandcamp.com/album/ascens-o-do-impiedoso

Extended info
Limited edition cassette of 100 copies.
Released by War Arts Productions.


Technical info

Input File: 06 - Alquimia Do Sofrimento.mp3
Channels : 2
Sample Rate : 44100
Precision : 16-bit
Duration : 00:02:55.89 = 7756529 samples = 13191.4 CDDA sectors
File Size : 7.03M
Bit Rate : 320k
Sample Encoding: MPEG audio (layer I, II or III)
Comments :
Title=Alquimia Do Sofrimento
Artist=Graves
Album=Ascensao Do Impiedoso
Tracknumber=6
Year=2019
Genre=Black Metal



[ Hidden Text ]

Powered by Invision Power Board
© Invision Power Services