Printable Version of Topic

Click here to view this topic in its original format

Metal Area - Extreme Music Portal _ New Releases _ Congenital Deformity - Sacrifice [demo] (2020)

Posted by: Panacea Nov 24 2021, 21:07:23

http://metalarea.org/images/audiocovers/2021_Nov/acov_tid358766.jpg

*Artist: Congenital Deformity
*Album: Sacrifice [demo]
*Year: 2020
*Genre: Death Metal
*Country: Italy
*Format: mp3@CBR320kbps
*Size: 39MB

Tracklist:
1. Chainsaw Surgery 04:01
2. Sacrifice 04:26
3. Funeral Torments 04:01
4. Despising Life 04:02
******************************
Total playing time: 16:30

https://congenitaldeformity.bandcamp.com/album/sacrifice
https://morbidchapelrecords.bandcamp.com/album/sacrifice

Technical info

Input File: 01 - Chainsaw Surgery.mp3
Channels : 2
Sample Rate : 44100
Precision : 16-bit
Duration : 00:04:01.36 = 10644020 samples = 18102.1 CDDA sectors
File Size : 9.75M
Bit Rate : 323k
Sample Encoding: MPEG audio (layer I, II or III)
Comments :
Title=Chainsaw Surgery
Artist=Congenital Deformity
Album=Sacrifice
Tracknumber=1
Year=2020
Genre=Death Metal



[ Hidden Text ]

Powered by Invision Power Board
© Invision Power Services