Printable Version of Topic

Click here to view this topic in its original format

Metal Area - Extreme Music Portal _ New Releases _ Hexenbann - Before Darkness Surrounds Us (2021)

Posted by: kefka Nov 25 2021, 05:18:47

https://metalarea.org/images/audiocovers/2021_Nov/acov_tid358768.jpg

*Artist: Hexenbann
*Album: Before Darkness Surrounds Us
*Year: 2021
*Genre: Black Metal
*Country: Spain
*Format: mp3@CBR320kbps
*Size: 98MB

Tracklist:
1.Eternal Silence 03:12
2.Narural Spell 03:19
3.Agony of the Sun 04:21
4.Delusion 04:04
5.The Night I Lay in the Forest (My Death) 05:15
6.Lady of the Drak 05:16
7.Behind the Clouds 04:41
8.Puer Natus Est Morti 03:42
l9.Orbis Alius 09:56
******************************
Total playing time: 43:46

https://hexenbann.bandcamp.com/album/before-darkness-surrounds-us

Technical info

Input File: 08. Puer Natus Est Morti.mp3
Channels : 2
Sample Rate : 44100
Precision : 16-bit
Duration : 00:03:36.07 = 9528819 samples = 16205.5 CDDA sectors
File Size : 8.64M
Bit Rate : 320k
Sample Encoding: MPEG audio (layer I, II or III)
Comments :
Title=Puer Natus Est Morti
Artist=Hexenbann
Album=Before Darkness Surrounds Us
Tracknumber=08
Year=2021
Genre=Black Metal



[ Hidden Text ]

Powered by Invision Power Board
© Invision Power Services