Printable Version of Topic

Click here to view this topic in its original format

Metal Area - Extreme Music Portal _ New Releases _ Jugulator - Under The Verdict (2021)

Posted by: Samaritianin Nov 25 2021, 07:58:39

https://metalarea.org/images/audiocovers/2021_Nov/acov_tid358771.jpg

*Artist: Jugulator
*Album: Under The Verdict
*Year: 2021
*Genre: Thrash Metal
*Country: Algeria
*Format: mp3@CBR320kbps
*Size: 104MB

Tracklist:
1. Strangers Conflict
2. Who Will Save Us
3. Civil War
4. Sunseth
5. Crysis
6. Blood On The Red Flag
7. Nuclearus
******************************
Total playing time: 45:22

https://jugulator88.bandcamp.com/
https://www.facebook.com/jugulator.band

Extended info
Black Bear Bass
Abderezzak Yahimi Drums
Death Corpse Guitars (rhythm)
Ramzy Curse Vocals, Guitars
See also: Korsan, Lelahell


Technical info

Input File: 07 - Nuclearus.mp3
Channels : 2
Sample Rate : 44100
Precision : 16-bit
Duration : 00:06:54.77 = 18291313 samples = 31107.7 CDDA sectors
File Size : 16.7M
Bit Rate : 321k
Sample Encoding: MPEG audio (layer I, II or III)
Comments :
Title=Nuclearus
Artist=Jugulator
Album=Under The Verdict
Tracknumber=7/7
Year=2021



[ Hidden Text ]

Powered by Invision Power Board
© Invision Power Services