Printable Version of Topic

Click here to view this topic in its original format

Metal Area - Extreme Music Portal _ New Releases _ Genophobic Perversion - The Art Of Catalepsy (2021)

Posted by: kefka Nov 25 2021, 11:55:07

https://metalarea.org/images/audiocovers/2021_Nov/acov_tid358774.jpg

*Artist: Genophobic Perversion
*Album: The Art Of Catalepsy
*Year: 2021
*Genre: Goregrind/Brutal Death Metal
*Country: United States
*Format: mp3@CBR320kbps
*Size: 75MB

Tracklist:
1.Contort 04:23
2.Oxidize 02:34
3.Neutralize 02:20
4.Throttle 03:16
5.Obliterate 02:26
6.Regurgitate 04:31
7.Terrorize 03:07
8.Exterminate 02:28
9.Dispose 07:18
******************************
Total playing time: 32:23

https://genophobicperversion.bandcamp.com/album/the-art-of-catalepsy

Technical info

Input File: 03. Neutralize.mp3
Channels : 2
Sample Rate : 44100
Precision : 16-bit
Duration : 00:02:20.39 = 6191287 samples = 10529.4 CDDA sectors
File Size : 5.62M
Bit Rate : 320k
Sample Encoding: MPEG audio (layer I, II or III)
Comments :
Title=Neutralize
Artist=Genophobic Perversion
Album=The Art of Catalepsy
Tracknumber=03
Year=2021
Genre=Avant-Garde Metal/Sludge/Goregrind



[ Hidden Text ]

Powered by Invision Power Board
© Invision Power Services