Printable Version of Topic

Click here to view this topic in its original format

Metal Area - Extreme Music Portal _ New Releases _ Eternity's End - Embers Of War (2021)

Posted by: Samaritianin Nov 25 2021, 12:16:46

https://metalarea.org/images/audiocovers/2021_Nov/acov_tid358779.jpg

*Artist: Eternity's End
*Album: Embers Of War
*Year: 2021
*Genre: Progressive Power/Speed Metal
*Country: Germany
*Format: mp3@CBR320kbps
*Size: 105MB

Tracklist:
01. Dreadnought (The Voyage of the Damned) 05:19
02. Bane of the Black Sword 04:50
03. Hounds of Tindalos 04:34
04. Call of the Valkyries 05:24
05. Arcturus Prime 05:54
06. Shaded Heart 05:17
07. Deathrider 04:25
08. Embers of War 09:30
******************************
Total playing time: 45:13

https://eternitysend.bandcamp.com/album/embers-of-war
https://www.facebook.com/EternitysEndMusic

Extended info
Linus Klausenitzer Bass
Hannes Grossmann Drums
Christian Münzner Guitars, Keyboards
Iuri Sanson Vocals (lead)
Justin Hombach Guitars


Technical info

Input File: 08 - Embers of War.mp3
Channels : 2
Sample Rate : 44100
Precision : 16-bit
Duration : 00:09:30.13 = 25142601 samples = 42759.5 CDDA sectors
File Size : 23.0M
Bit Rate : 323k
Sample Encoding: MPEG audio (layer I, II or III)
Comments :
Title=Embers of War
Artist=Eternity's End
Album=Embers of War
Tracknumber=8/8
Year=2021



[ Hidden Text ]

Posted by: Cronopio Nov 25 2021, 18:20:12

Thank you.

Posted by: Dirt_ORFEY Nov 29 2021, 20:17:43

Знатное гитарное поливалово конечно. Миллион мелодий, по большей части крутых, на высоких скоростях, ни намёка на размазывание соплей по грифу гитары. Есть небольшой передых в Embers of War, но при такой длине песни это просто мимолётно. Альбом напичкан боевиками, которые проносятся влёт. Гитаристы изливают риффы от души. Вокал мне местами нравится, местами нет. Не могу про него ничего сказать, всё таки павер слушаю редко. Но всё же здесь музыка на первом плане.

С группой познакомился на прошлом альбоме из-за участия в ней уважаемых людей. Там уже было хорошо, сабж же вообще вышка. Лучший альбом группы на сегодня, кмк.

Posted by: Storky Dec 8 2021, 13:35:10

Один из самых внушительных Павер релизов вообще. Глыба мелодик метала. Длиннющие соляки, даже на басухе, прекрасная запись всего, просто кайфуешь от ПШ и кардана и звучания всех инструментов. Сам вокал сначала показался посредственным, но примерно с третей песни стало норм, даже хорошо. Было даже плюсом, когда мотивы узнавались. А сами риффы весьма оригинальные. 10/10

Posted by: Yarri Dec 14 2021, 16:09:09

Вокал-то хероват.

Posted by: DenisKov Dec 30 2021, 14:22:46

Вокал все портит, хотя паливают и правда весьма изобильно.

Powered by Invision Power Board
© Invision Power Services