Printable Version of Topic

Click here to view this topic in its original format

Metal Area - Extreme Music Portal _ Archive _ Black Label Society - Doom Crew Inc. (2021)

Posted by: necroscum Nov 25 2021, 12:23:26

https://metalarea.org/images/audiocovers/2021_Nov/acov_tid358781.jpg

*Artist: https://metalarea.org/forum/index.php?showtopic=15343
*Album: Doom Crew Inc.
*Year: 2021
*Genre: Southern/Groove Metal
*Country: United States
*Format: mp3@CBR320kbps
*Size: 152MB

Tracklist:
01. Set You Free 03:58
02. Destroy & Conquer 04:41
03. You Made Me Want to Live 04:31
04. Forever and a Day 04:09
05. End of Days 05:22
06. Ruins 05:47
07. Forsaken 05:54
08. Love Reign Down 05:48
09. Gospel of Lies 06:32
10. Shelter Me 05:28
11. Gather All my Sins 04:18
12. Farewell Ballad 06:39
******************************
Total playing time: 1:03:07

https://myspace.com/blacklabelsociety
https://www.facebook.com/blacklabelsociety
https://soundcloud.com/black-label-society
https://blacklabelsocietyband.bandcamp.com/album/doom-crew-inc
https://www.youtube.com/watch?v=KUGkTQfAiVg

Technical info

Input File: 02 - Destroy & Conquer.mp3
Channels : 2
Sample Rate : 44100
Precision : 16-bit
Duration : 00:04:41.00 = 12392100 samples = 21075 CDDA sectors
File Size : 11.4M
Bit Rate : 325k
Sample Encoding: MPEG audio (layer I, II or III)
Comments :
Title=Destroy & Conquer
Artist=Black Label Society
Album=Doom Crew Inc.
Tracknumber=2
Year=2021-11-26
Discnumber=1



[ Hidden Text ]

Posted by: vosmidesijatye Nov 25 2021, 19:48:30

Слушаю уже в третий раз - и сабж выглядит более энергичным, качёвым, чем предыдущие два (пусть и неплохих, но слишком уж лиричных) альбома. Здесь Закк как будто воспрял.

Конечно, до шедевральных альбомов 2000 и 2002 года тут невообразимо далеко, но то была совсем иная музыка.

Ожидал альбом и он получился лучше, чем первоначально рассчитывал, за что Бороде от меня спасибо!

Posted by: vosmidesijatye Nov 25 2021, 22:03:38

Don`t expect babanguida to cherish such albums 25.gif

Posted by: Vitald Nov 26 2021, 13:37:13

Пургатень. Ф0натам стаффа и дум рога зайдёт.

Posted by: hammer Nov 26 2021, 14:09:20

Зак, отменный гитарист , но его БЛС , вот вообще мимо. За то как он играл у Озика!

Posted by: vosmidesijatye Nov 26 2021, 14:15:50

ЦИТАТА(hammer @ Nov 26 2021, 16:09:20) *
За то как он играл у Озика!


И ещё сыграет. 25.gif Оззи официально подтвердил, что на его новом, готовящимся к выходу, релизу Закк сыграл все гитарные партии)

Powered by Invision Power Board
© Invision Power Services