Printable Version of Topic

Click here to view this topic in its original format

Metal Area - Extreme Music Portal _ New Releases _ Godhead Machinery - Monotheistic Enslavement (2021)

Posted by: necroscum Nov 25 2021, 13:12:31

https://metalarea.org/images/audiocovers/2021_Nov/acov_tid358788.jpg

*Artist: Godhead Machinery
*Album: Monotheistic Enslavement
*Year: 2021
*Genre: Black Metal
*Country: Sweden
*Format: mp3@CBR320kbps
*Size: 85MB

Tracklist:
1. Sovereign of Nullity 04:19
2. Ethereal 05:09
3. Dethroned 05:25
4. Orbis Non Sufficit 03:59
5. Upon His Deceitful Star 04:32
6. Helion 04:32
7. Monotheistic Enslavement 08:15
******************************
Total playing time: 36:11

https://www.facebook.com/GodheadMachinery/
https://godheadmachinery.bandcamp.com/album/monotheistic-enslavement
https://www.youtube.com/watch?v=jheCsPnSOmI

Technical info

Input File: 02-godhead_machinery-ethereal-a7ec678f.mp3
Channels : 2
Sample Rate : 44100
Precision : 16-bit
Duration : 00:05:09.99 = 13670515 samples = 23249.2 CDDA sectors
File Size : 12.7M
Bit Rate : 327k
Sample Encoding: MPEG audio (layer I, II or III)
Comments :
Title=Ethereal
Artist=Godhead Machinery
Album=Monotheistic Enslavement
Tracknumber=2/7
Year=2021
Genre=Black Metal



[ Hidden Text ]

Powered by Invision Power Board
© Invision Power Services