Printable Version of Topic

Click here to view this topic in its original format

Metal Area - Extreme Music Portal _ New Releases _ Gurthang - Hearts Of The Hollow (2021)

Posted by: Samaritianin Nov 25 2021, 14:21:13

https://metalarea.org/images/audiocovers/2021_Nov/acov_tid358794.jpg

*Artist: https://metalarea.org/forum/index.php?showtopic=184057
*Album: Hearts Of The Hollow
*Year: 2021
*Genre: Black/Funeral Doom Metal
*Country: Poland
*Format: mp3@CBR320kbps
*Size: 99MB

Tracklist:
1. Vide de Cœurs (prologue) 01:47
2. Structures of Constriction 08:00
3. Spasms of Reflection 06:05
4. Concealed Beneath 05:52
5. In the Shrines of Self-Creation 05:36
6. Hearts of the Hollow 06:34
7. The Apathy of Decadence 06:13
8. Constriction (reprise) 03:01
******************************
Total playing time: 43:08

https://gurthang.bandcamp.com/
https://www.facebook.com/Gurthang.Official/

Extended info
Stormalv Bass
A.Z.V. Vocals, Guitars, Effects
G.H. Ambiance, Effects
Vojfrost Keyboards, Effects
Turenn Drums


Technical info

Input File: 07 - The Apathy of Decadence.mp3
Channels : 2
Sample Rate : 44100
Precision : 16-bit
Duration : 00:06:13.08 = 16452608 samples = 27980.6 CDDA sectors
File Size : 15.0M
Bit Rate : 322k
Sample Encoding: MPEG audio (layer I, II or III)
Comments :
Title=The Apathy of Decadence
Artist=Gurthang
Album=Hearts of the Hollow
Tracknumber=7/8
Year=2021



[ Hidden Text ]

Powered by Invision Power Board
© Invision Power Services