Printable Version of Topic

Click here to view this topic in its original format

Metal Area - Extreme Music Portal _ New Releases _ Imperialist - Zenith (2021)

Posted by: necroscum Nov 25 2021, 14:29:56

https://metalarea.org/images/audiocovers/2021_Nov/acov_tid358795.jpg

*Artist: Imperialist
*Album: Zenith
*Year: 2021
*Genre: Black Metal
*Country: United States
*Format: mp3@CBR320kbps
*Size: 100MB

Tracklist:
1. 01011000 02:11
2. The Maw 05:28
3. Parallax Descends 06:17
4. He Who Mastered Shapes 08:29
5. Majesty of the Void 07:08
6. Terminal Odyssey 05:56
7. Beyond the Celestial Veil 08:17
******************************
Total playing time: 43:46

https://www.facebook.com/Imperialistofficial
https://soundcloud.com/imperialist-1
https://imperialistus.bandcamp.com/album/zenith-sci-fi-black-metal
https://www.youtube.com/watch?v=wPaZY1yBe2s

Technical info

Input File: 02 - The Maw.mp3
Channels : 2
Sample Rate : 44100
Precision : 16-bit
Duration : 00:05:27.75 = 14453775 samples = 24581.2 CDDA sectors
File Size : 13.2M
Bit Rate : 322k
Sample Encoding: MPEG audio (layer I, II or III)
Comments :
Title=The Maw
Artist=Imperialist
Album=Zenith
Tracknumber=2/7
Year=2021



[ Hidden Text ]

Posted by: Andrew Nov 26 2021, 21:21:39

Melodic Black Metal, очень добротный альбом!

Posted by: isvili Nov 27 2021, 09:17:23

Ого, новый Империалист, предыдущий был такой хороший, что аж на CD взял.

Posted by: AnthonyHipHopkins Nov 27 2021, 19:00:01

Что тут добротного, кроме качества записи...У Тулкандры материал интереснее и ярче, ей богу.
Кроме приятного соляка в последнем треке вообще ничего не запомнил - 43 минуты абсолютно одинаковой риффовки.

Posted by: isvili Nov 29 2021, 09:56:31

ЦИТАТА(AnthonyHipHopkins @ Nov 27 2021, 20:00:01) *
Что тут добротного, кроме качества записи...У Тулкандры материал интереснее и ярче, ей богу.
Кроме приятного соляка в последнем треке вообще ничего не запомнил - 43 минуты абсолютно одинаковой риффовки.

Ну с Тулкандрой сравнивать нельзя, тут абсолютно другая музыка, даже с нотками прога и не на все 100% melodic black.
У них и предыдущий альбом практически весь как одна песня был, этот даже получше вроде, да, может немного и однообразно,
но цепляет.

Posted by: AnthonyHipHopkins Nov 29 2021, 10:40:37

QUOTE(isvili @ Nov 29 2021, 09:56:31) *
У них и предыдущий альбом практически весь как одна песня был, этот даже получше вроде, да, может немного и однообразно,
но цепляет.

Однообразно - это было бы еще терпимо. Но вот что здесь может цеплять так и не понял и после второго прогона, честно говоря...
Если что-то цепляет, то что-то можно выделить относительно "фона". Здесь кроме вышеупомянутого соло вообще же нет такого различия - это просто сплошной фон, который просто немного меняет темп и структуру
на протяжении этих 43 минут. Есть 2-максимум 3 момента (например вторая половина последнего трека), которые пытаются на что-то претендовать, но назвать их цепляющими это было бы лютым перебором.

Posted by: isvili Nov 29 2021, 14:55:16

ЦИТАТА(AnthonyHipHopkins @ Nov 29 2021, 11:40:37) *
Однообразно - это было бы еще терпимо. Но вот что здесь может цеплять так и не понял и после второго прогона, честно говоря...

Да все как бы объяснимо, на вкус и цвет......

Posted by: Victim of fate Jan 22 2022, 08:13:25

стиль зарисовки названия группы как у First Fragment

Powered by Invision Power Board
© Invision Power Services