Printable Version of Topic

Click here to view this topic in its original format

Metal Area - Extreme Music Portal _ New Releases _ I Helvete - Sinisten Puiden Niitty (2021)

Posted by: Samaritianin Nov 25 2021, 14:33:24

https://metalarea.org/images/audiocovers/2021_Nov/acov_tid358796.jpg

*Artist: I Helvete
*Album: Sinisten Puiden Niitty
*Year: 2021
*Genre: Melodic Death/Black Metal
*Country: Finland
*Format: mp3@CBR320kbps
*Size: 87MB

Tracklist:
1. Kunnes Kuolema Meidät Erottaa 05:41
2. Vihapuhe 03:49
3. Pohjaton Kuilu 06:34
4. Sairaan Mielen Sinfonia 04:40
5. Laulu Itselleni 04:58
6. Hirsipuu 11:58
******************************
Total playing time: 37:40

https://ihelvete.bandcamp.com/
https://www.facebook.com/iHelveteband/

Extended info
Tapio Holappa Bass
Teemu Koski Drums
See also: Judas Avenger, Paraferia, ex-Sotahuuto
Manu Kujala Guitars
Aleksi Mäkelä Vocals, Guitars
See also: Paraferia


Technical info

Input File: 05 - Laulu Itselleni.mp3
Channels : 2
Sample Rate : 44100
Precision : 16-bit
Duration : 00:04:58.52 = 13164600 samples = 22388.8 CDDA sectors
File Size : 12.1M
Bit Rate : 325k
Sample Encoding: MPEG audio (layer I, II or III)
Comments :
Title=Laulu Itselleni
Artist=I Helvete
Album=Sinisten Puiden Niitty
Tracknumber=5/6
Year=2021



[ Hidden Text ]

Posted by: AnthonyHipHopkins Nov 27 2021, 19:26:16

Лихие финские экспперименты.
Потенциал в паре мест проглядывает, но слишком уж все непоследовательно сделано; если бы по-серьезнее отнеслись - может что и вышло бы.
Ну и такая на коленке нарисованная обложка это, конечно, совсем не дело.

Posted by: dm666 Nov 28 2021, 10:25:59

Lossless: FLAC (tracks)
[ Hidden Text ]

Powered by Invision Power Board
© Invision Power Services