Printable Version of Topic

Click here to view this topic in its original format

Metal Area - Extreme Music Portal _ New Releases _ Concrete Winds - Nerve Butcherer (2021)

Posted by: necroscum Nov 25 2021, 14:44:23

https://metalarea.org/images/audiocovers/2021_Nov/acov_tid358797.jpg

*Artist: Concrete Winds
*Album: Nerve Butcherer
*Year: 2021
*Genre: Death Metal/Grindcore
*Country: Finland
*Format: mp3@CBR320kbps
*Size: 66MB

Tracklist:
1. Nerve Butcherer 02:25
2. Chromium Jaws 03:07
3. Demonic Truculence 01:57
4. Industrial Mutilation 02:46
5. Noise Trepanation 02:18
6. Intravenous Doctrine 01:59
7. Flaying Internecine 02:54
8. Paroxystic Flagellator 02:01
9. Dissolvent Baptism 04:48
10. Astomatous Vomiting 02:44
******************************
Total playing time: 26:59

https://www.facebook.com/aggressivenoisetorment/
https://concretewinds.bandcamp.com/album/nerve-butcherer
https://www.youtube.com/watch?v=M1liHBuuY2o

Technical info

Input File: 02. Chromium Jaws.mp3
Channels : 2
Sample Rate : 44100
Precision : 16-bit
Duration : 00:03:06.89 = 8241981 samples = 14017 CDDA sectors
File Size : 7.78M
Bit Rate : 333k
Sample Encoding: MPEG audio (layer I, II or III)
Comments :
Title=Chromium Jaws
Artist=Concrete Winds
Album=Nerve Butcherer
Tracknumber=2
Year=2021
Discnumber=1/1



[ Hidden Text ]

Posted by: babanguida Nov 25 2021, 19:24:09

It's Death or Black Death but not really Grindcore even if you can find some elements in.

Posted by: Antichrist Nov 25 2021, 23:38:53

Excellent! Very brutal and chaotic release.

Posted by: sacrut Nov 26 2021, 23:50:53

they are just unstoppable, an unbelievable wave of energy and riffing attack

Posted by: AHBAnep Nov 27 2021, 10:31:56

[ Hidden Text ]

Posted by: Hexer Nov 28 2021, 17:54:04

Помимо финского Блэка, мне всегда нравились банды из суоми которые играли Дэз Метал, Грайнд и прочее. Concrete Winds это только подтвердил. Брутально, хаотично и очень зажигательно. Наиприятнейший альбом!

Posted by: Storky Dec 10 2021, 09:43:52

Reminds https://metalarea.org/forum/index.php?showtopic=85502&hl=mulk&st=0
about melodies, but more of standart DM and chaotic, which is boring a bit.
However its not oneman and sounds quite natural, 9-/10

Powered by Invision Power Board
© Invision Power Services