Printable Version of Topic

Click here to view this topic in its original format

Metal Area - Extreme Music Portal _ New Releases _ Hitten - Triumph & Tragedy (2021)

Posted by: Samaritianin Nov 25 2021, 14:50:32

https://metalarea.org/images/audiocovers/2021_Nov/acov_tid358798.jpg

*Artist: Hitten
*Album: Triumph & Tragedy
*Year: 2021
*Genre: Heavy Metal
*Country: Spain
*Format: mp3@CBR320kbps
*Size: 109MB

Tracklist:
1. Built to Rock 03:31
2. Eyes Never Lie 04:01
3. Meant to Be Mean 03:52
4. Hard Intentions (Secret Dancer) 03:54
5. Ride Out the Storm 03:19
6. Core of the Flame 04:47
7. Under Your Spell 04:41
8. Light Beyond the Darkness 04:35
9. Something to Hide 03:34
10. Triumph & Tragedy 11:11
******************************
Total playing time: 47:25

https://hittenofficial.bandcamp.com/album/triumph-tragedy
https://www.facebook.com/hittenofficial/

Extended info
Mr. C Bass
Dani Guitars
Johnny Lorca Guitars
Alex Panza Vocals
Willy Medina Drums


Technical info

Input File: 07 - Under Your Spell.mp3
Channels : 2
Sample Rate : 44100
Precision : 16-bit
Duration : 00:04:41.09 = 12396201 samples = 21082 CDDA sectors
File Size : 11.3M
Bit Rate : 323k
Sample Encoding: MPEG audio (layer I, II or III)
Comments :
Title=Under Your Spell
Artist=Hitten
Album=Triumph & Tragedy
Tracknumber=7/10
Year=2021



[ Hidden Text ]

Posted by: Terrorizer Nov 26 2021, 14:48:33

Хороший хэви из конца 80-х. Тем, кому нравились всякие бомжови, доккены и пр., думаю, и этот альбом зайдёт.

Powered by Invision Power Board
© Invision Power Services