Printable Version of Topic

Click here to view this topic in its original format

Metal Area - Extreme Music Portal _ New Releases _ Hollow - Tower (2021)

Posted by: necroscum Nov 25 2021, 14:53:26

https://metalarea.org/images/audiocovers/2021_Nov/acov_tid358799.jpg

*Artist: https://metalarea.org/forum/index.php?showtopic=163641
*Album: Tower
*Year: 2021
*Genre: Progressive/Power Metal
*Country: Sweden
*Format: mp3@CBR320kbps
*Size: 85MB

Tracklist:
01. Birth 03:45
02. The Tower 03:25
03. Guardian 03:49
04. The Waiting Is Over 03:26
05. Destroyer of Worlds 03:38
06. Every Drop of My Blood 03:58
07. Sunrise 03:29
08. A Home Forgotten 03:30
09. Nation of Man 03:42
10. Wander On 03:39
******************************
Total playing time: 36:21

https://myspace.com/moderncathedral
https://www.facebook.com/hollowsweden/
https://www.soundclick.com/artist/default.cfm?bandid=344804
https://www.youtube.com/watch?v=ja9pr9zWCbs

Technical info

Input File: 02 - The Tower.mp3
Channels : 2
Sample Rate : 44100
Precision : 16-bit
Duration : 00:03:26.00 = 9084600 samples = 15450 CDDA sectors
File Size : 8.39M
Bit Rate : 326k
Sample Encoding: MPEG audio (layer I, II or III)
Comments :
Title=The Tower
Artist=Hollow
Album=Tower
Tracknumber=2
Year=2021-11-26
Discnumber=1



[ Hidden Text ]

Posted by: Marek Nov 26 2021, 22:18:55

Lossless please?

Posted by: avather Nov 26 2021, 23:09:32

Обложка отличное
Что внутри?

Posted by: MetalgeR Nov 27 2021, 05:35:30

Чёёёт уныло или я зажрался

Posted by: Dreamtale Nov 27 2021, 09:52:54

Уныло и ты зажрался.

Powered by Invision Power Board
© Invision Power Services