Printable Version of Topic

Click here to view this topic in its original format

Metal Area - Extreme Music Portal _ Archive _ Fortress - Don't Spare The Wicked (2021)

Posted by: necroscum Nov 25 2021, 15:02:47

https://metalarea.org/images/audiocovers/2021_Nov/acov_tid358800.jpg

*Artist: Fortress
*Album: Don't Spare The Wicked
*Year: 2021
*Genre: Heavy/Power Metal
*Country: United States
*Format: mp3@CBR320kbps
*Size: 67MB

Tracklist:
01. Lost Forever 04:06
02. Devil's Wheel 03:35
03. Anguish 03:37
04. Red Light Runner 02:55
05. Find Yourself 03:37
06. Children of the Night 04:08
07. The Passage 03:31
08. Don't Spare the Wicked 03:16
******************************
Total playing time: 28:45

https://www.facebook.com/Fortressheavymetal/
https://fortressofficial.bandcamp.com/album/dont-spare-the-wicked
https://www.youtube.com/watch?v=k6v79G5No8w

Technical info

Input File: 02 - Devil\'s Wheel.mp3
Channels : 2
Sample Rate : 44100
Precision : 16-bit
Duration : 00:03:35.00 = 9481500 samples = 16125 CDDA sectors
File Size : 8.77M
Bit Rate : 326k
Sample Encoding: MPEG audio (layer I, II or III)
Comments :
Title=Devil's Wheel
Artist=Fortress
Album=Don't Spare the Wicked
Tracknumber=2
Year=2021-11-26
Discnumber=1



[ Hidden Text ]

Posted by: metalboll Nov 25 2021, 22:02:14

Отличный музон! Зачет ! Старая школа!

Posted by: metalboll Nov 26 2021, 08:57:44

Super!

Posted by: Storky Dec 10 2021, 10:28:39

Очень понравился когда-то такой шэдевральный хэви на харде https://metalarea.org/forum/index.php?showtopic=255483
С тех пор ничего подобного не слышал, и только в последнее время начали попадаться похожие не плохие релизы.
Так вот только этот релиз я бы поставил на уровень с Ambush, очень хорошоий альбом, думаю десятка.
added: 9/10

Posted by: grobator Jan 16 2022, 07:20:22

обновите ссылку

Posted by: Storky Jan 20 2022, 15:33:46

[ Hidden Text ]

Posted by: Victim of fate Jan 23 2022, 17:32:49

ЦИТАТА(Storky @ Dec 10 2021, 12:28:39) *
Очень понравился когда-то такой шэдевральный хэви на харде https://metalarea.org/forum/index.php?showtopic=255483
С тех пор ничего подобного не слышал, и только в последнее время начали попадаться похожие не плохие релизы.
Так вот только этот релиз я бы поставил на уровень с Ambush, очень хорошоий альбом, думаю десятка.
added: 9/10

Ambush - как раз 10/10
Fortress - 8/10

и обе команды достойны коллекции!!!!


Posted by: Yarri Jan 23 2022, 20:38:30

ЦИТАТА(Storky @ Dec 10 2021, 12:28:39) *
Очень понравился когда-то такой шэдевральный хэви на харде https://metalarea.org/forum/index.php?showtopic=255483

Это был отличный подгон. Мне вообще вся дискография понравилась. А "Крепость" не так чтобы очень.

Posted by: SAPOGi Feb 18 2022, 06:59:35

Не Крепость, а шалашик какой-то. Вокалист прям с первой же песни не пришелся.
Вобщем крепость этого вльбома максимум как у жигулька 4-5 градусовв

Powered by Invision Power Board
© Invision Power Services