Printable Version of Topic

Click here to view this topic in its original format

Metal Area - Extreme Music Portal _ New Releases _ Morguiliath - Occult Sins, New Unholy Dimension (2021)

Posted by: necroscum Nov 25 2021, 15:14:49

https://metalarea.org/images/audiocovers/2021_Nov/acov_tid358802.jpg

*Artist: Morguiliath
*Album: Occult Sins, New Unholy Dimension
*Year: 2021
*Genre: Black Metal
*Country: France
*Format: mp3@CBR320kbps
*Size: 109MB

Tracklist:
1. Occult Sins, New Unholy Dimension 02:19
2. Pass Away 04:59
3. Blåck Peårl 05:58
4. Ad Mortem Festinamus 04:40
5. Aborted Inquisition 06:39
6. Venom and Vomit 07:27
7. Glörïa 07:44
8. Ghouls Sphere 07:54
******************************
Total playing time: 47:40

https://www.facebook.com/Morguiliath/
https://osmoseproductions.bandcamp.com/album/occult-sins-new-unholy-dimension
https://www.youtube.com/watch?v=69TeqGv7qDU

Technical info

Input File: 02-morguiliath-pass_away-e48f567e.mp3
Channels : 2
Sample Rate : 44100
Precision : 16-bit
Duration : 00:04:59.75 = 13218887 samples = 22481.1 CDDA sectors
File Size : 12.1M
Bit Rate : 324k
Sample Encoding: MPEG audio (layer I, II or III)
Comments :
Title=Pass Away
Artist=Morguiliath
Album=Occult Sins, New Unholy Dimension
Tracknumber=2/8
Year=2021
Genre=Black Metal



[ Hidden Text ]

Posted by: Sangreal Dec 28 2021, 20:25:18

Ну и ccaнина.
"illustrious boss of French Black Metal" всё пытается выехать на былых заслугах.
Заставляют его продолжать этим заниматься, что ли?
Освободите Вилли!

Powered by Invision Power Board
© Invision Power Services