Printable Version of Topic

Click here to view this topic in its original format

Metal Area - Extreme Music Portal _ New Releases _ Lychlake - The Tragedy Of Doctor Faustus (2021)

Posted by: necroscum Nov 25 2021, 15:45:37

https://metalarea.org/images/audiocovers/2021_Nov/acov_tid358805.jpg

*Artist: Lychlake
*Album: The Tragedy Of Doctor Faustus
*Year: 2021
*Genre: Symphonic Death Metal
*Country: United Kingdom
*Format: mp3@CBR320kbps
*Size: 160MB

Tracklist:
1. Bene Disserere Est Finis Logices 11:58
2. Consummatum Est 09:09
3. Felicity Bequeathed By The Neck Of Paramour 09:55
4. Libera Me I 03:34
5. Libera Me II 06:23
6. Penultimate Patricide 06:15
7. The Tragedy of Doctor Faustus 23:02
******************************
Total playing time: 1:10:16

https://www.facebook.com/Lychlakeuk/
https://lychlake.bandcamp.com/album/the-tragedy-of-doctor-faustus

Technical info

Input File: 02 - Consummatum Est.mp3
Channels : 2
Sample Rate : 44100
Precision : 16-bit
Duration : 00:09:09.33 = 24225585 samples = 41200 CDDA sectors
File Size : 22.0M
Bit Rate : 321k
Sample Encoding: MPEG audio (layer I, II or III)
Comments :
Title=Consummatum Est
Artist=Lychlake
Album=The Tragedy of Doctor Faustus
Tracknumber=2/7
Year=2021



[ Hidden Text ]

Posted by: Sanctus Nov 26 2021, 11:56:45

Весьма и весьма грамотная работа! Музыка увлекает, погружает и уносит - моё почтение! 20.gif

Posted by: isvili Nov 27 2021, 09:06:40

Вроде и интересно, но звук подгулял, им бы хорошую студию.

Posted by: AnthonyHipHopkins Nov 27 2021, 21:54:48

Даа даже хороший звук бы здесь общему горю не помог.
Рождественско-сказочный симфо метал, довольно унылый в-общем. Сказать что совсем не умеют сочинять нельзя, иногда приятные моменты проглядывают,
но все это тонет в общем болоте какого-то совершенно бездумного музицирования.

Posted by: Sanctus Jan 1 2022, 02:22:55

Это настоящее сказочное музыкальное путешествие!

Posted by: 6666666 Jan 1 2022, 02:27:48

Верю Энтони.

Powered by Invision Power Board
© Invision Power Services