Printable Version of Topic

Click here to view this topic in its original format

Metal Area - Extreme Music Portal _ New Releases _ Gorebag - Tethered To The Wicked Domain (2021)

Posted by: necroscum Nov 25 2021, 15:55:59

https://metalarea.org/images/audiocovers/2021_Nov/acov_tid358806.jpg

*Artist: Gorebag
*Album: Tethered To The Wicked Domain
*Year: 2021
*Genre: Brutal Death/Groove Metal
*Country: Finland
*Format: mp3@CBR320kbps
*Size: 68MB

Tracklist:
1. Abyss of the Wretched 02:38
2. Decomposed Reanimation 02:38
3. Amputated and Refrigerated 03:24
4. Regurgitated Eyeball Soup 03:01
5. Viscera Showers and Funky Funerals 02:55
6. Gutter Crawler 02:29
7. Fetid Cave of Entrails 02:49
8. Meat Grinder Blues 03:10
9. Psyche of the Debauched 02:51
10. From Nascency toward Termination 03:00
******************************
Total playing time: 28:55

https://www.instagram.com/gorebagofficial/
https://gorebag.bandcamp.com/album/tethered-to-the-wicked-domain
https://www.youtube.com/watch?v=hVW7bnImSdU

Technical info

Input File: 07. Fetid Cave of Entrails.mp3
Channels : 2
Sample Rate : 44100
Precision : 16-bit
Duration : 00:02:49.08 = 7456296 samples = 12680.8 CDDA sectors
File Size : 6.92M
Bit Rate : 327k
Sample Encoding: MPEG audio (layer I, II or III)
Comments :
Title=Fetid Cave of Entrails
Artist=Gorebag
Album=Tethered to the Wicked Domain
Tracknumber=7
Year=2021
Discnumber=1/1



[ Hidden Text ]

Powered by Invision Power Board
© Invision Power Services