Printable Version of Topic

Click here to view this topic in its original format

Metal Area - Extreme Music Portal _ New Releases _ Ergholae Somptator - Mille Vertiges Fondent Sur Les Âmes Vides (2021)

Posted by: necroscum Nov 25 2021, 16:09:31

https://metalarea.org/images/audiocovers/2021_Nov/acov_tid358808.jpg

*Artist: Ergholae Somptator
*Album: Mille Vertiges Fondent Sur Les Âmes Vides
*Year: 2021
*Genre: Black Metal
*Country: France
*Format: mp3@CBR320kbps
*Size: 96MB

Tracklist:
1. La mort bientôt jouit
2. Les infectes salives
3. Mille vertiges
4. Deviens
5. La difformité des étoiles sombres
6. Tique mon amour
7. Aux silhouettes désolantes
8. Carbone
9. Hantise
******************************
Total playing time: 41:45

https://www.facebook.com/ergholaesomptator
https://ergholaesomptator.bandcamp.com/album/mille-vertiges-fondent-sur-les-mes-vides
https://www.youtube.com/watch?v=8scScXQWd9Q

Technical info

Input File: 02 - Les Infectes Salives.mp3
Channels : 2
Sample Rate : 44100
Precision : 16-bit
Duration : 00:04:29.13 = 11868545 samples = 20184.6 CDDA sectors
File Size : 10.8M
Bit Rate : 321k
Sample Encoding: MPEG audio (layer I, II or III)
Comments :
Title=Les Infectes Salives
Artist=Ergholae Somptator
Album=Mille Vertiges Fondent Sur Les Âmes Vides
Tracknumber=2/9
Year=2021



[ Hidden Text ]

Powered by Invision Power Board
© Invision Power Services