Printable Version of Topic

Click here to view this topic in its original format

Metal Area - Extreme Music Portal _ New Releases _ Tdw - Fountains (2021)

Posted by: necroscum Nov 25 2021, 16:21:39

https://metalarea.org/images/audiocovers/2021_Nov/acov_tid358809.jpg

*Artist: Tdw
*Album: Fountains
*Year: 2021
*Genre: Progressive Metal
*Country: Netherlands
*Format: mp3@CBR320kbps
*Size: 130MB

Tracklist:
01. Fountains 05:45
02. Inner Enemy 04:30
03. Hope Song I 03:04
04. Gratitude Song 06:28
05. Hunter's Eyes 05:01
06. Anthracite 06:56
07. Another Choice, Another Universe 05:33
08. Graveyard Boogie 04:26
09. Traveller 05:31
10. Hope Song II 08:50
******************************
Total playing time: 56:04

https://myspace.com/tdwmusic
https://www.facebook.com/tdwmusic
https://www.instagram.com/tdwprog/
https://www.youtube.com/watch?v=mbl4Wd0MwIo

Technical info

Input File: 02 - TDW - Inner Enemy.mp3
Channels : 2
Sample Rate : 44100
Precision : 16-bit
Duration : 00:04:30.49 = 11928609 samples = 20286.8 CDDA sectors
File Size : 11.1M
Bit Rate : 327k
Sample Encoding: MPEG audio (layer I, II or III)
Comments :
Title=Inner Enemy
Artist=TDW
Album=Fountains
Tracknumber=2/10
Year=2021
Discnumber=1/1



[ Hidden Text ]

Posted by: DenisKov Dec 31 2021, 07:39:45

Превьюха скучная, ничего интересного.

Powered by Invision Power Board
© Invision Power Services