Printable Version of Topic

Click here to view this topic in its original format

Metal Area - Extreme Music Portal _ New Releases _ Enthralled By Chaos - Hammerblast [ep] (2018)

Posted by: GorAtheist Nov 25 2021, 16:50:54

https://metalarea.org/images/audiocovers/2021_Nov/acov_tid358810.jpg

*Artist: Enthralled By Chaos
*Album: Hammerblast [ep]
*Year: 2018
*Genre: Death Metal
*Country: Switzerland
*Format: mp3@CBR320kbps
*Size: 30MB

Tracklist:
1. Call for War 03:09
2. On the Battlefield 03:21
3. Victory 03:52
4. Filthy Pleasure 02:40
******************************
Total playing time: 13:02

https://enthralledbychaos.bandcamp.com/releases

Extended info
https://www.metal-archives.com/albums/Enthralled_by_Chaos/Hammerblast/781450


Technical info

Input File: 02. On the Battlefield.mp3
Channels : 2
Sample Rate : 44100
Precision : 16-bit
Duration : 00:03:21.39 = 8881387 samples = 15104.4 CDDA sectors
File Size : 8.06M
Bit Rate : 320k
Sample Encoding: MPEG audio (layer I, II or III)
Comments :
Title=On the Battlefield
Artist=Enthralled By Chaos
Album=Hammerblast
Tracknumber=02
Year=2018
Genre=Death Metal



[ Hidden Text ]

Powered by Invision Power Board
© Invision Power Services