Printable Version of Topic

Click here to view this topic in its original format

Metal Area - Extreme Music Portal _ Archive _ Servant - Blessed By The Light Of A Thousand Stars (2021)

Posted by: necroscum Nov 25 2021, 17:09:08

https://metalarea.org/images/audiocovers/2021_Nov/acov_tid358812.jpg

*Artist: Servant
*Album: Blessed By The Light Of A Thousand Stars
*Year: 2021
*Genre: Black Metal
*Country: France
*Format: mp3@CBR320kbps
*Size: 101MB

Tracklist:
01. Negate the I 07:35
02. Death Meditation 06:29
03. The Ultimate Occult Worship 04:28
04. Foreshadowing Rite 02:44
05. Hymn to the Latest Days 04:28
06. Incantation of the Old Ones 03:58
07. Destruction and Recreation 03:17
08. Ecclesia Obscuri 06:12
09. Blessed by the Light of a Thousand Stars 04:08
******************************
Total playing time: 43:19

https://www.facebook.com/ServantMagick
https://www.instagram.com/servantmagick/
https://www.youtube.com/watch?v=jFIJs9QsZyo

Technical info

Input File: 02 - Death Meditation.mp3
Channels : 2
Sample Rate : 44100
Precision : 16-bit
Duration : 00:06:29.43 = 17173951 samples = 29207.4 CDDA sectors
File Size : 15.8M
Bit Rate : 324k
Sample Encoding: MPEG audio (layer I, II or III)
Comments :
Title=Death Meditation
Artist=SERVANT
Album=Blessed by the Light of a Thousand Stars
Tracknumber=2
Year=2021
Discnumber=1/1



[ Hidden Text ]

Posted by: m3t4l4r340rg Nov 26 2021, 12:16:29

Country is Germany according their Instragram Account.

Posted by: RUSP73 Nov 26 2021, 22:36:19


Posted by: avather Nov 26 2021, 23:08:18

ЦИТАТА(RUSP73 @ Nov 27 2021, 00:36:19) *
https://cs5.livemaster.ru/storage/b6/13/f3ff86d7592d99e9c4abf34099a2--dlya-doma-i-interera-servant-v-stile-60-h-godov-20-veka.jpg

У меня такой был.

Posted by: isvili Nov 27 2021, 09:09:34

Этот сервант вовсе не плох, я бы сказал что тут 60-70% это melodic black

Posted by: isvili Dec 3 2021, 11:25:32

LOSSLESS дайте? Отличный альбом 20.gif

Powered by Invision Power Board
© Invision Power Services