Printable Version of Topic

Click here to view this topic in its original format

Metal Area - Extreme Music Portal _ New Releases _ Swamp Coffin - Noose Almighty (2021)

Posted by: Samaritianin Nov 25 2021, 18:34:03

https://metalarea.org/images/audiocovers/2021_Nov/acov_tid358819.jpg

*Artist: Swamp Coffin
*Album: Noose Almighty
*Year: 2021
*Genre: Sludge/Doom/Stoner Metal
*Country: United Kingdom
*Format: mp3@CBR320kbps
*Size: 90MB

Tracklist:
1. Your Problem 05:59
2. Jägerbombs Away 04:20
3. Barbarian Windsor 07:14
4. Noose Almighty 05:52
5. Knuckledrageger 08:06
6. Welcome to Rot 07:39
******************************
Total playing time: 39:10

https://swampcoffin.bandcamp.com/album/noose-almighty
https://www.facebook.com/swampcoffinband/

Extended info
David Wistow Drums
Jon Rhodes Guitars, Vocals
Martyn White Bass


Technical info

Input File: 05 - Knuckledragger.mp3
Channels : 2
Sample Rate : 44100
Precision : 16-bit
Duration : 00:08:06.09 = 21436569 samples = 36456.8 CDDA sectors
File Size : 19.6M
Bit Rate : 323k
Sample Encoding: MPEG audio (layer I, II or III)
Comments :
Title=Knuckledragger
Artist=Swamp Coffin
Album=Noose Almighty
Tracknumber=5
Year=2021



[ Hidden Text ]

Posted by: vosmidesijatye Nov 25 2021, 20:23:40

Полнейший третьесорт и никакого нихилизьму (как они указывают на бэндкампе) тут ваще нет.

Powered by Invision Power Board
© Invision Power Services