Printable Version of Topic

Click here to view this topic in its original format

Metal Area - Extreme Music Portal _ Archive _ Corbian - Chapter Ii [ep] (2022)

Posted by: wolfskaiser Jan 13 2022, 13:04:41

http://metalarea.org/images/audiocovers/2022_Jan/acov_tid360424.jpg

*Artist: Corbian
*Album: Chapter Ii [ep]
*Year: 2022
*Genre: Melodic Death Metal
*Country: Germany
*Format: mp3@CBR320kbps
*Size: 82MB

Tracklist:
01. Lilith
02. Veritas
03. Karma
04. Bonded
05. Lykaion
06. Nunfuckers
07. Atlas
******************************
Total playing time: 29:31

https://corbian.bandcamp.com/
https://www.facebook.com/Corbian

Technical info

Input File: 02. Veritas (feat. In Dying Lights).mp3
Channels : 2
Sample Rate : 44100
Precision : 16-bit
Duration : 00:05:51.27 = 15490787 samples = 26344.9 CDDA sectors
File Size : 15.3M
Bit Rate : 349k
Sample Encoding: MPEG audio (layer I, II or III)
Comments :
Title=Veritas (feat. In Dying Lights)
Artist=Corbian
Album=Chapter II (EP)
Tracknumber=02/07
Year=2022
Genre=Metal



[ Hidden Text ]

Posted by: Old Vyaine Jan 14 2022, 19:12:55


Posted by: dm666 Jan 23 2022, 11:41:54

Lossless: FLAC (tracks)
[ Hidden Text ]

Powered by Invision Power Board
© Invision Power Services