Printable Version of Topic

Click here to view this topic in its original format

Metal Area - Extreme Music Portal _ Archive _ Wrath Of Fate - Legal Order (2022)

Posted by: wolfskaiser Jan 13 2022, 21:57:22

https://metalarea.org/images/audiocovers/2022_Jan/acov_tid360455.jpg

*Artist: Wrath Of Fate
*Album: Legal Order
*Year: 2022
*Genre: Death Metal
*Country: Turkey
*Format: mp3@CBR320kbps
*Size: 93MB

Tracklist:
01. Intro
02. Is Over
03. Annihilation Tale
04. Ghoul
05. Scale of Ma'at
06. Legal Order
07. Resist All Pressure
08. Protest
09. Roots of Hate
10. This Is Not Your Life
******************************
Total playing time: 37:11

https://www.facebook.com/Wrath-of-Fate-108343297312101/

Technical info

Input File: 02. Is Over.mp3
Channels : 2
Sample Rate : 44100
Precision : 16-bit
Duration : 00:03:33.33 = 9407853 samples = 15999.8 CDDA sectors
File Size : 8.60M
Bit Rate : 323k
Sample Encoding: MPEG audio (layer I, II or III)
Comments :
Title=Is Over
Artist=Wrath Of Fate
Album=Legal Order
Tracknumber=02/10
Year=2022
Genre=Death Metal



[ Hidden Text ]

Posted by: dm666 Jan 15 2022, 08:29:32

Lossless: FLAC (tracks)
[ Hidden Text ]

Powered by Invision Power Board
© Invision Power Services