Printable Version of Topic

Click here to view this topic in its original format

Metal Area - Extreme Music Portal _ Archive _ Rambuk - Chains (2022)

Posted by: wolfskaiser Jan 13 2022, 22:00:27

https://metalarea.org/images/audiocovers/2022_Jan/acov_tid360456.jpg

*Artist: Rambuk
*Album: Chains
*Year: 2022
*Genre: Thrash/Death Metal
*Country: Denmark
*Format: mp3@CBR320kbps
*Size: 94MB

Tracklist:
01. Confess
02. By A Thread
03. Icarus Flight
04. Sic Semper Tyrannis
05. 23 & 1
06. Death Of The Chosen
07. Rats In The Walls
08. Hate Me
09. Repent
******************************
Total playing time: 37:01

https://www.facebook.com/rambukmetal

Technical info

Input File: 02. By A Thread.mp3
Channels : 2
Sample Rate : 44100
Precision : 16-bit
Duration : 00:04:15.86 = 11283426 samples = 19189.5 CDDA sectors
File Size : 10.3M
Bit Rate : 323k
Sample Encoding: MPEG audio (layer I, II or III)
Comments :
Title=By A Thread
Artist=Rambuk
Album=Chains
Tracknumber=02/09
Year=2022
Genre=Metal



[ Hidden Text ]

Posted by: Old Vyaine Jan 14 2022, 18:26:18

https://rambuk.bandcamp.com/

Posted by: dm666 Jan 15 2022, 17:00:01

Lossless: FLAC (tracks)
[ Hidden Text ]

Powered by Invision Power Board
© Invision Power Services