Printable Version of Topic

Click here to view this topic in its original format

Metal Area - Extreme Music Portal _ Archive _ Bleeding Zero - Pain & Fiction (2022)

Posted by: wolfskaiser Jan 14 2022, 00:48:18

https://metalarea.org/images/audiocovers/2022_Jan/acov_tid360459.jpg

*Artist: Bleeding Zero
*Album: Pain & Fiction
*Year: 2022
*Genre: Symphonic/Gothic Metal
*Country: Italy
*Format: mp3@CBR320kbps
*Size: 142MB

Tracklist:
01. Terra Nova
02. Life And Death Of Sybil Vane
03. Parnassus
04. Sappho's Leap
05. Romanticynicism
06. In Somnium Ars Clamavit
07. Ecce Ancilla Musae
08. Bliss Of The Sea
09. Scenophiliac
10. The Seal And The Siren
11. Saturnine
12. Quest For Myself
******************************
Total playing time: 57:28

https://bleedingzero.bandcamp.com/
https://www.facebook.com/BleedingZero/

Technical info

Input File: 02. Life And Death Of Sybil Vane.mp3
Channels : 2
Sample Rate : 44100
Precision : 16-bit
Duration : 00:04:39.08 = 12307604 samples = 20931.3 CDDA sectors
File Size : 11.2M
Bit Rate : 322k
Sample Encoding: MPEG audio (layer I, II or III)
Comments :
Title=Life And Death Of Sybil Vane
Artist=Bleeding Zero
Album=Pain & Fiction
Tracknumber=02/12
Year=2022
Genre=Metal



[ Hidden Text ]

Posted by: Old Vyaine Jan 14 2022, 18:02:16


Posted by: sadmannn Jan 14 2022, 18:59:19

Облогу в Пэйнте делали..и музыку в нём же, похоже. На скорую руку

Powered by Invision Power Board
© Invision Power Services