Printable Version of Topic

Click here to view this topic in its original format

Metal Area - Extreme Music Portal _ Archive _ Fecal Body Incorporated - Tales From The Spermswamp (2022)

Posted by: kefka Jan 14 2022, 06:26:17

https://metalarea.org/images/audiocovers/2022_Jan/acov_tid360467.jpg

*Artist: Fecal Body Incorporated
*Album: Tales From The Spermswamp
*Year: 2022
*Genre: Goregrind
*Country: Bulgaria
*Format: mp3@CBR320kbps
*Size: 134MB

Tracklist:
01.Legend For The Spermswamp 04:02
02.Woman Like A Fetish 03:17
03.Adventures Of Don Coyote In The Valley Of Anal 04:19
04.Fairy Divine And Deadly Vaginosis 04:10
05.The Fisherman And Golden Transexual Mermaid 06:38
06.Superman And The 40 Whores 03:02
07.Filthy Passions 03:38
08.Frog Time In Pussyland 03:01
09.Uncle Dick In The Kingdom Of Tight Anals 03:22
10.Prayer For The Spermswamp 02:47
11.Rectal Kaviar Sludge 03:22
12.Female S(H)It Terror 03:02
13.Bizarre Body Modification 02:26
14.Something Rotten For Dinner 03:32
15.Maggots And Rancid Meat 02:17
16.Removal Of Rotting Fetus From The Womb 01:33
17.Cold Turkey (Ahumado Granujo Cover) 01:33
18.King Anus III (Cock And Ball Torture Cover) 00:57
19.Pathogenesis 02:00
******************************
Total playing time: 58:58

https://www.youtube.com/watch?v=ujnZDg0G5RU

Extended info
Recorded, mixed and mastered January-August 2021 in Slaughterhouse Studio, Pleven, Bulgaria.
Tracks 11-19 recorded live at Club VLC, 26.05.2012, Sofia, Bulgaria.


Technical info

Input File: 06. Superman And The 40 Whores.mp3
Channels : 2
Sample Rate : 44100
Precision : 16-bit
Duration : 00:03:02.87 = 8064567 samples = 13715.2 CDDA sectors
File Size : 7.51M
Bit Rate : 329k
Sample Encoding: MPEG audio (layer I, II or III)
Comments :
Title=Superman And The 40 Whores
Artist=Fecal Body Incorporated
Album=Tales From The Spermswamp
Tracknumber=06
Year=2021
Genre=Goregrind



[ Hidden Text ]

Posted by: oathzine Jan 15 2022, 08:30:44

Flac

[ Hidden Text ]

Posted by: rominow Jan 15 2022, 15:23:04


Powered by Invision Power Board
© Invision Power Services