Printable Version of Topic

Click here to view this topic in its original format

Metal Area - Extreme Music Portal _ Archive _ Dissociation - Frozen Mournings... (2022)

Posted by: rimfrost Jan 14 2022, 09:56:14

https://metalarea.org/images/audiocovers/2022_Jan/acov_tid360468.jpg

*Artist: https://metalarea.org/forum/index.php?showtopic=301157
*Album: Frozen Mournings...
*Year: 2022
*Genre: Depressive Black Metal
*Country: France
*Format: mp3@CBR320kbps
*Size: 84MB

Tracklist:
1. Fog Pt. I 06:54
2. Fog Pt. II 05:40
3. A Brighter Place 06:32
4. In the Wake of Winter 07:38
5. A Ghost 09:41
******************************
Total playing time: 36:25

https://dissociation22.bandcamp.com/

Technical info

Input File: 02 - Fog, Pt. II.mp3
Channels : 2
Sample Rate : 44100
Precision : 16-bit
Duration : 00:05:40.97 = 15036865 samples = 25572.9 CDDA sectors
File Size : 13.7M
Bit Rate : 321k
Sample Encoding: MPEG audio (layer I, II or III)
Comments :
Title=Fog, Pt. II
Artist=Dissociation
Album=Frozen Mournings...
Tracknumber=2
Year=2022
Genre=Depressive Black Metal



[ Hidden Text ]

Posted by: rominow Jan 15 2022, 15:20:05


Posted by: Krosis Jan 18 2022, 15:25:19

Можно послушать. Можно не слушать. Отторжения не вызывает, восторгов тоже.

Powered by Invision Power Board
© Invision Power Services