Printable Version of Topic

Click here to view this topic in its original format

Metal Area - Extreme Music Portal _ Archive _ In Loving Memory - The Withering (2022)

Posted by: wolfskaiser Jan 14 2022, 15:48:33

https://metalarea.org/images/audiocovers/2022_Jan/acov_tid360476.jpg

*Artist: In Loving Memory
*Album: The Withering
*Year: 2022
*Genre: Melodic Doom/Death Metal
*Country: Spain
*Format: mp3@CBR320kbps
*Size: 196MB

Tracklist:
01. Stellar Runaway 08:10
02. Lead Clouds 07:38
03. The Dance Of Moons 08:25
04. Dawn Of Misery 07:37
05. Fractured 07:58
06. Translucid Remains 07:36
07. Sun Of Ebony 07:00
08. Nothing But Pain 07:08
09. The Reversal 08:04
10. Martyrdom Of Light 08:34
******************************
Total playing time: 1:18:10

https://funere.bandcamp.com/album/the-withering
https://ilmband.bandcamp.com/album/the-withering
https://www.facebook.com/inlovingmemorymetal

Extended info






Technical info

Input File: 03. The Dance Of Moons.mp3
Channels : 2
Sample Rate : 44100
Precision : 16-bit
Duration : 00:08:25.92 = 22310984 samples = 37943.9 CDDA sectors
File Size : 20.4M
Bit Rate : 322k
Sample Encoding: MPEG audio (layer I, II or III)
Comments :
Title=The Dance Of Moons
Artist=In Loving Memory
Album=The Withering
Tracknumber=03/10
Year=2022
Genre=Metal



[ Hidden Text ]

Posted by: sadmannn Jan 14 2022, 18:29:57

Всё хорошо, кроме одного -- жутко однообразный материал, мелодий, как таковых, очень немного

Posted by: Aectan Jan 14 2022, 19:52:27

ЦИТАТА(sadmannn @ Jan 14 2022, 22:29:57) *
Всё хорошо, кроме одного -- жутко однообразный материал, мелодий, как таковых, очень немного

Тогда не всё хорошо, а очередной проходняк получается)

Posted by: GRAF Jan 14 2022, 20:17:54

Довольно значительный прогресс по сравнению с предыдущими альбомами. Но все еще несколько сыро и однообразно.

Posted by: Old Vyaine Jan 14 2022, 20:39:58

Ловите момент! Я почти полностью согласен с

QUOTE(GRAF @ 14th January 2022 - 22:17:54) *
Довольно значительный прогресс по сравнению с предыдущими альбомами. Но все еще несколько сыро и однообразно.


!!!

Погоняю ещё для точного вердикта.

Posted by: wolfskaiser Jan 14 2022, 21:40:51

на медиафаре сходу заабузили, хз качает щас или нет, во всяком случае ненадолго.
прямая ссыль - [ Hidden Text ]
и еще
[ Hidden Text ]

Posted by: avather Jan 14 2022, 22:19:06

ЦИТАТА(sadmannn @ Jan 14 2022, 20:29:57) *
Всё хорошо, кроме одного --

Твоих камментов?!

Posted by: dm666 Jan 15 2022, 13:42:20

Lossless: FLAC (tracks)
[ Hidden Text ]

Posted by: rominow Jan 15 2022, 15:14:35

Приятный, не напряжный альбом.

Posted by: skidnik Jan 15 2022, 19:02:24

Настолько ненапряжный что только как фон и годится.
Мелодик без запоминающихся мелодий.

QUOTE(Old Vyaine @ 14th January 2022 - 23:39:58) *
Я почти полностью согласен с
QUOTE(GRAF @ 14th January 2022 - 23:17:54) *
Довольно значительный прогресс по сравнению с предыдущими альбомами.
Скорее попытка сменить стиль к лучшему.
Группа со времён дебютной демки умудряется делать только хуже.

Posted by: Dreamtale Jan 19 2022, 15:14:10

ЦИТАТА(skidnik @ 15th January 2022 - 21:02:24) *
Мелодик без запоминающихся мелодий

this

Posted by: MeatWolf Jan 23 2022, 12:50:18

Напомнило Ocean of Grief, только воды ещё больше. Согласен с отписавшимися выше.

Posted by: 6666666 Jan 23 2022, 23:12:59

Какой-то бесконечный альбом. В топку.

Posted by: 6666666 Jan 27 2022, 21:44:09

Из топки. Немного расслушал, попадаются крайне любопытные мелодии (да, похожие на Ocean of Grief), но они тонут в куче воды тут. Надо вести наблюдение.

Posted by: Ferz Mar 18 2022, 16:30:43

Отлично, несмотря на небольшие претензии к вокалу. Сравнение с Ocean of Grief достаточно корректное.

Powered by Invision Power Board
© Invision Power Services