Printable Version of Topic

Click here to view this topic in its original format

Metal Area - Extreme Music Portal _ Archive _ Gallowglass Scourge - Silence (2022)

Posted by: Samaritianin Jan 14 2022, 21:49:03

https://metalarea.org/images/audiocovers/2022_Jan/acov_tid360522.jpg

*Artist: Gallowglass Scourge
*Album: Silence
*Year: 2022
*Genre: Melodic Death Metal
*Country: United States
*Format: mp3@CBR320kbps
*Size: 132MB

Tracklist:
1. Enter Novalunosis 03:36
2. One Soul 06:15
3. Silence 04:39
4. Deep Blue 06:20
5. Bravery 03:20
6. This Burden 07:05
7. Tyranny of Time 04:02
8. Reflection 07:31
9. Defiance 06:11
10. The Gates of Elysium 08:12
******************************
Total playing time: 57:11

https://www.facebook.com/Gallowglass-Scourge-104312788732814/

Extended info


Technical info

Input File: 07 - Tyranny of Time.mp3
Channels : 2
Sample Rate : 44100
Precision : 16-bit
Duration : 00:04:02.82 = 10708406 samples = 18211.6 CDDA sectors
File Size : 9.86M
Bit Rate : 325k
Sample Encoding: MPEG audio (layer I, II or III)
Comments :
Title=Tyranny of Time
Artist=Gallowglass Scourge
Album=Silence
Tracknumber=7/1



[ Hidden Text ]

Posted by: AHBAnep Jan 15 2022, 07:50:47

https://music.yandex.ru/album/20059917
Проект https://www.metal-archives.com/artists/Matt_Hamilton/473794 и драммера https://www.metal-archives.com/artists/Tom_Croxton/21989. Интересно. Определённо с примесью Doom.
[ Hidden Text ]

Powered by Invision Power Board
© Invision Power Services